Précédent   Planet Emulation Forums > Emulation > Emulateurs Consoles

Emulateurs Consoles Forum dédié aux problèmes avec les émulateurs de consoles comme la SuperNes, la Megadrive, etc...

Réponse
 
Outils de la discussion Modes d'affichage
Vieux 19/04/2003, 17h23   #1
viss_84
Invité
 
Messages: n/a
Yo,

J ai pris la derniere version de nebula,
J ai l iso de kof96 (le King of Fighters 96.iso et le King of Fighters 96.cue) + les mp3
Mais le probleme ce que j ai pas de musique quand je joue ( y a les bruitages) donc a mon avis le probleme viens du nom des mp3, est-ce qu il faut leur donner un nom special??(ils ont ca comme nom:
King of Fighters 96 - Track XX (de 2 juska 43)
  Réponse avec citation
Vieux 19/04/2003, 18h51   #2
Firebrand
Membre de la Team
 
Avatar de Firebrand
 
Date d'inscription: 12/2001
Localisation: Serenity, en Istaria
Messages: 12 616
Firebrand est précieuxFirebrand est précieuxFirebrand est précieuxFirebrand est précieux
Envoyer un message via ICQ à Firebrand Envoyer un message via AIM à Firebrand Envoyer un message via MSN à Firebrand Envoyer un message via Yahoo à Firebrand
Tu as essayé en décompressant les .mp3 en .wav (et en modifiant le .cue en conséquence)? Je ne sais pas si Nebula sait gérer les mp3.
Ceci dit, c'est juste une piste car je suis novice en émulation Neo-Geo CD...
__________________
http://mypsn.eu.playstation.com/psn/profile/FirebrandCrest.png
Firebrand est déconnecté   Réponse avec citation
Vieux 26/04/2003, 21h34   #3
ViSs
Pilier du Forum
 
Date d'inscription: 04/2003
Messages: 1 617
ViSs sait se tenir
je viens de convertir en .wav mais ca marche toujour pas

Citation:
et en modifiant le .cue en conséquence
Je vois pas ce que tu veux dire...
ViSs est déconnecté   Réponse avec citation
Vieux 26/04/2003, 22h19   #4
amiga
Invité
 
Messages: n/a
essais de renommer les mp3 avec le meme nom que l'iso, et en les numerotant.
exemple, nom de la rom: vissfaitduski.iso
tu renomes tes mp3: vissfaitduski1.mp3 vissfaitduski2.mp3, etc etc...(comme les rom mega cd)

pour ce qui est du "cue"...c'est une déformation profesionnelle de firebrand
  Réponse avec citation
Vieux 26/04/2003, 22h26   #5
ViSs
Pilier du Forum
 
Date d'inscription: 04/2003
Messages: 1 617
ViSs sait se tenir
ben c'est ce que j ai fait, pour l instant ca donne ca:
http://membres.lycos.fr/sephiroth364/kof96.jpg

marche pa!
ViSs est déconnecté   Réponse avec citation
Vieux 26/04/2003, 22h56   #6
amiga
Invité
 
Messages: n/a
et avec des mp3?...
ou en gravant le tout sur un cd?(piste de donnée+pistes son)

le. cue sert a renseigner ton logiciel de gravage sur la norme iso utilisée pour faire l'image, tu peu ouvrir ce fichier avec le bloc note de windows (non non, pas avec le doigt firebrand )
  Réponse avec citation
Vieux 26/04/2003, 23h05   #7
ViSs
Pilier du Forum
 
Date d'inscription: 04/2003
Messages: 1 617
ViSs sait se tenir
en mp3 aussi ca passe pas...

Mais comment je fais pour graver avec les mp3?

ps: cool ma signature elle passe tjr^^
ViSs est déconnecté   Réponse avec citation
Vieux 27/04/2003, 00h17   #8
Firebrand
Membre de la Team
 
Avatar de Firebrand
 
Date d'inscription: 12/2001
Localisation: Serenity, en Istaria
Messages: 12 616
Firebrand est précieuxFirebrand est précieuxFirebrand est précieuxFirebrand est précieux
Envoyer un message via ICQ à Firebrand Envoyer un message via AIM à Firebrand Envoyer un message via MSN à Firebrand Envoyer un message via Yahoo à Firebrand
Amiga, je suis en train de me laver les mains jusqu'au coude rien que pour toi...

Bon trève de plaisanterie. Comme te l'as dit Amiga, le .cue continet les infos nécessaires à la gravure.
Les onfos que je vais te donner concerne la PC Engine CD mais je vais l'appliquer au Neo-Geo CD.

Décompresse tout d'abord tes mp3 en wav
Ouvre ton kof96.cue avec le bloc note. Tu verras peut-être des informations de ce type.

FILE "Track16.mp3" MP3
TRACK 16 AUDIO
PREGAP 00:00:00
INDEX 01 00:00:00


Renommes les en:

FILE "Track16.wav" WAVE
TRACK 16 AUDIO
PREGAP 00:00:00
INDEX 01 00:00:00


Puis enregistre le fichier (fais une copie de sauvegarde de l'original par sécurité avant). Essaie ensuite avec ça. Je ne te garantie pas que ça marche (ça marche avec la PCE CD en tout cas) mais ça vaut le coup d'essayer.
__________________
http://mypsn.eu.playstation.com/psn/profile/FirebrandCrest.png
Firebrand est déconnecté   Réponse avec citation
Vieux 27/04/2003, 00h32   #9
DarrkGanasch
Invité
 
Messages: n/a
C' était bien ça Amiga. Il faut graver l' ISO+MP3 et cela fonctionne. Nebula ne gère pas les MP3.

Cependant, une image Bin devrait fonctionner.
  Réponse avec citation
Vieux 27/04/2003, 00h39   #10
ViSs
Pilier du Forum
 
Date d'inscription: 04/2003
Messages: 1 617
ViSs sait se tenir
ah ca marche pas avec la tehnique de firou....

dommage....bon bah gravage powaa alors
ViSs est déconnecté   Réponse avec citation
Vieux 27/04/2003, 02h34   #11
amiga
Invité
 
Messages: n/a
il est impossible de se laver les mains jusqu'au coude
gravage...néro
  • tu décompresse le contenu de ton "iso" dans un répertoire sur ton disque dur, avec "isobuster" ou "winiso"
  • ensuite, NERO fichier/nouveau/cd mode mixte
  • tu lis les info contenu dans le.cue (mode1 ou2) et tu mets ça dans l'onglet "iso" puis tu clic sur "nouveau"
  • dans la partie en haut a gauche tu mets le contenu du répertoire(pas le répertoire) ..les données
  • dans la partie basse tu mets tes pistes audio, ou tes mp3(aucune différence)
  • tu grave le tout, en donnant éventuelement le nom de l'iso de base a ton cd...tu viens de te refaire un cd"original" qui devrait marcher

essais de faire cete manip sur un cdrw(en cas de boulette)
si ça ne fonctionne pas, refait la manip en enlevant l'intervale entre tes pistes audio.(d'ailleur avant de graver, regarde dans le.cue si il y a ou pas d'intervale entre les pistes)
  Réponse avec citation
Vieux 27/04/2003, 09h12   #12
DarrkGanasch
Invité
 
Messages: n/a
J' imagine la tête de ViSs !

Tu compliques pas un peu l' affaire amiga ?
Je pense qu' il est tout à fait possible de graver l' ISO directement à partir du .cue, que l' on charge dans Nero ou CDRWIN.
  Réponse avec citation
Vieux 27/04/2003, 11h15   #13
amiga
Invité
 
Messages: n/a
Citation:
J' imagine la tête de ViSs !
http://bubu89.free.fr/vis.gif

------->[]
  Réponse avec citation
Vieux 27/04/2003, 13h06   #14
ViSs
Pilier du Forum
 
Date d'inscription: 04/2003
Messages: 1 617
ViSs sait se tenir
http://www.smilies.org/basesmilies3/biggol.gif...voila me tete...

Non mais je sais comment graver l iso mais le probleme c'est que je sais pas comment rajouter les mp3 dans le cd....Je vais pas les foutre directement comme ca tel quelle quand meme...ché po...
ViSs est déconnecté   Réponse avec citation
Vieux 27/04/2003, 15h38   #15
Firebrand
Membre de la Team
 
Avatar de Firebrand
 
Date d'inscription: 12/2001
Localisation: Serenity, en Istaria
Messages: 12 616
Firebrand est précieuxFirebrand est précieuxFirebrand est précieuxFirebrand est précieux
Envoyer un message via ICQ à Firebrand Envoyer un message via AIM à Firebrand Envoyer un message via MSN à Firebrand Envoyer un message via Yahoo à Firebrand
Mets nous ici le contenu de ton kof96.cue: on pourra peut-être davantage t'aider car c'est là dedans que ça se passe...
__________________
http://mypsn.eu.playstation.com/psn/profile/FirebrandCrest.png
Firebrand est déconnecté   Réponse avec citation
Vieux 27/04/2003, 16h11   #16
ViSs
Pilier du Forum
 
Date d'inscription: 04/2003
Messages: 1 617
ViSs sait se tenir
ok alors ca donne ca :

FILE "King of Fighters 96 - Track 01.iso" BINARY
TRACK 01 MODE1/2048
INDEX 01 00:00:00
FILE "King of Fighters 96 - Track 02.wav" WAVE
TRACK 02 AUDIO
PREGAP 00:03:00
INDEX 01 00:00:00
FILE "King of Fighters 96 - Track 03.wav" WAVE
TRACK 03 AUDIO
INDEX 01 00:00:00
FILE "King of Fighters 96 - Track 04.wav" WAVE
TRACK 04 AUDIO
INDEX 01 00:00:00
FILE "King of Fighters 96 - Track 05.wav" WAVE
TRACK 05 AUDIO
INDEX 01 00:00:00
FILE "King of Fighters 96 - Track 06.wav" WAVE
TRACK 06 AUDIO
INDEX 01 00:00:00
FILE "King of Fighters 96 - Track 07.wav" WAVE
TRACK 07 AUDIO
INDEX 01 00:00:00
FILE "King of Fighters 96 - Track 08.wav" WAVE
TRACK 08 AUDIO
INDEX 01 00:00:00
FILE "King of Fighters 96 - Track 09.wav" WAVE
TRACK 09 AUDIO
INDEX 01 00:00:00
FILE "King of Fighters 96 - Track 10.wav" WAVE
TRACK 10 AUDIO
INDEX 01 00:00:00
FILE "King of Fighters 96 - Track 11.wav" WAVE
TRACK 11 AUDIO
INDEX 01 00:00:00
FILE "King of Fighters 96 - Track 12.wav" WAVE
TRACK 12 AUDIO
INDEX 01 00:00:00
FILE "King of Fighters 96 - Track 13.wav" WAVE
TRACK 13 AUDIO
INDEX 01 00:00:00
FILE "King of Fighters 96 - Track 14.wav" WAVE
TRACK 14 AUDIO
INDEX 01 00:00:00
FILE "King of Fighters 96 - Track 15.wav" WAVE
TRACK 15 AUDIO
INDEX 01 00:00:00
FILE "King of Fighters 96 - Track 16.wav" WAVE
TRACK 16 AUDIO
INDEX 01 00:00:00
FILE "King of Fighters 96 - Track 17.wav" WAVE
TRACK 17 AUDIO
INDEX 01 00:00:00
FILE "King of Fighters 96 - Track 18.wav" WAVE
TRACK 18 AUDIO
INDEX 01 00:00:00
FILE "King of Fighters 96 - Track 19.wav" WAVE
TRACK 19 AUDIO
INDEX 01 00:00:00
FILE "King of Fighters 96 - Track 20.wav" WAVE
TRACK 20 AUDIO
INDEX 01 00:00:00
FILE "King of Fighters 96 - Track 21.wav" WAVE
TRACK 21 AUDIO
INDEX 01 00:00:00
FILE "King of Fighters 96 - Track 22.wav" WAVE
TRACK 22 AUDIO
INDEX 01 00:00:00
FILE "King of Fighters 96 - Track 23.wav" WAVE
TRACK 23 AUDIO
INDEX 01 00:00:00
FILE "King of Fighters 96 - Track 24.wav" WAVE
TRACK 24 AUDIO
INDEX 01 00:00:00
FILE "King of Fighters 96 - Track 25.wav" WAVE
TRACK 25 AUDIO
INDEX 01 00:00:00
FILE "King of Fighters 96 - Track 26.wav" WAVE
TRACK 26 AUDIO
INDEX 01 00:00:00
FILE "King of Fighters 96 - Track 27.wav" WAVE
TRACK 27 AUDIO
INDEX 01 00:00:00
FILE "King of Fighters 96 - Track 28.wav" WAVE
TRACK 28 AUDIO
INDEX 01 00:00:00
FILE "King of Fighters 96 - Track 29.wav" WAVE
TRACK 29 AUDIO
INDEX 01 00:00:00
FILE "King of Fighters 96 - Track 30.wav" WAVE
TRACK 30 AUDIO
INDEX 01 00:00:00
FILE "King of Fighters 96 - Track 31.wav" WAVE
TRACK 31 AUDIO
INDEX 01 00:00:00
FILE "King of Fighters 96 - Track 32.wav" WAVE
TRACK 32 AUDIO
INDEX 01 00:00:00
FILE "King of Fighters 96 - Track 33.wav" WAVE
TRACK 33 AUDIO
INDEX 01 00:00:00
FILE "King of Fighters 96 - Track 34.wav" WAVE
TRACK 34 AUDIO
INDEX 01 00:00:00
FILE "King of Fighters 96 - Track 35.wav" WAVE
TRACK 35 AUDIO
INDEX 01 00:00:00
FILE "King of Fighters 96 - Track 36.wav" WAVE
TRACK 36 AUDIO
INDEX 01 00:00:00
FILE "King of Fighters 96 - Track 37.wav" WAVE
TRACK 37 AUDIO
INDEX 01 00:00:00
FILE "King of Fighters 96 - Track 38.wav" WAVE
TRACK 38 AUDIO
INDEX 01 00:00:00
FILE "King of Fighters 96 - Track 39.wav" WAVE
TRACK 39 AUDIO
INDEX 01 00:00:00
FILE "King of Fighters 96 - Track 40.wav" WAVE
TRACK 40 AUDIO
INDEX 01 00:00:00
FILE "King of Fighters 96 - Track 41.wav" WAVE
TRACK 41 AUDIO
INDEX 01 00:00:00
FILE "King of Fighters 96 - Track 42.wav" WAVE
TRACK 42 AUDIO
INDEX 01 00:00:00
FILE "King of Fighters 96 - Track 42.wav" WAVE
TRACK 42 AUDIO
INDEX 01 00:00:00

j ai changé les mp3 en wav comme tu m as dit....alors docteur?
ViSs est déconnecté   Réponse avec citation
Vieux 27/04/2003, 16h13   #17
DarrkGanasch
Invité
 
Messages: n/a
Tu graves le tout avec CDRWIN et voilà ! Le tout saupoudré d' un peu de patience et le tour est joué.
Pour ceux qui auraient des doutes : Necstasy.
  Réponse avec citation
Vieux 27/04/2003, 16h26   #18
Firebrand
Membre de la Team
 
Avatar de Firebrand
 
Date d'inscription: 12/2001
Localisation: Serenity, en Istaria
Messages: 12 616
Firebrand est précieuxFirebrand est précieuxFirebrand est précieuxFirebrand est précieux
Envoyer un message via ICQ à Firebrand Envoyer un message via AIM à Firebrand Envoyer un message via MSN à Firebrand Envoyer un message via Yahoo à Firebrand
Ouais, en effet, c'est curieux... parce que si tu mets l'iso + wav + cue dans un même dossier, ça devrait fonctionner...
Tu as essayé de monter le .cue dans un lecteur virtuel comme Daemon Tools?
Si ça ne marche toujours, pas ben essaie la méthode de Trash car je ne vois pas pourquoi ça coince... :-
__________________
http://mypsn.eu.playstation.com/psn/profile/FirebrandCrest.png
Firebrand est déconnecté   Réponse avec citation
Vieux 27/04/2003, 17h51   #19
ViSs
Pilier du Forum
 
Date d'inscription: 04/2003
Messages: 1 617
ViSs sait se tenir
hoho....apres des heures de galere j ai trouvé pourquoi ca marchait pas....

Ben en fait si vous regardez les piste audio il manque la track38....Et comme dans le cue il y est....

¬_¬;
ViSs est déconnecté   Réponse avec citation
Vieux 27/04/2003, 18h17   #20
Firebrand
Membre de la Team
 
Avatar de Firebrand
 
Date d'inscription: 12/2001
Localisation: Serenity, en Istaria
Messages: 12 616
Firebrand est précieuxFirebrand est précieuxFirebrand est précieuxFirebrand est précieux
Envoyer un message via ICQ à Firebrand Envoyer un message via AIM à Firebrand Envoyer un message via MSN à Firebrand Envoyer un message via Yahoo à Firebrand
Pas faux... et il y a aussi un problème au niveau de la piste 43:

FILE "King of Fighters 96 - Track 41.wav" WAVE
TRACK 41 AUDIO
INDEX 01 00:00:00
FILE "King of Fighters 96 - Track 42.wav" WAVE
TRACK 42 AUDIO
INDEX 01 00:00:00
FILE "King of Fighters 96 - Track 42.wav" WAVE
TRACK 42 AUDIO
INDEX 01 00:00:00


Elle n'est pas indiqué et la 42 est mise 2 fois... :-

Ca fait quelques pistes supplémentaires pour bidouller (résultat non garanti).

- tu renommes la 43 et 38 (celle qui te manque)
- tu renommes la 39 et 38, la 40 en 39, etc...
- tu modifies ton .cue:
le deuxième:
FILE "King of Fighters 96 - Track 42.wav" WAVE
TRACK 42 AUDIO
INDEX 01 00:00:00

devient:
FILE "King of Fighters 96 - Track 43.wav" WAVE
TRACK 43 AUDIO
INDEX 01 00:00:00

Dans ce cas, il te manquera effectivment un fichier... que tu peux essayer de recréer toi même avec Nebula Jukebox et la ROM de kof96... il faudra "juste" repérer la piste audio qu'il te manque...


Si ça ne fonctionne toujours pas, essaie de monter le kof96.iso lui même avec un lecteur virtuel en ne passant pas par le .cue; ce sera sans les musiques, mais c'est mieux que rien...

Si ça ne marche toujours pas, j'avoue être à court d'idées... :-
__________________
http://mypsn.eu.playstation.com/psn/profile/FirebrandCrest.png
Firebrand est déconnecté   Réponse avec citation
Réponse


Utilisateurs regardant la discussion actuelle : 1 (0 membre(s) et 1 invité(s))
 
Outils de la discussion
Modes d'affichage

Règles de messages
Vous ne pouvez pas créer de nouvelles discussions
Vous ne pouvez pas envoyer des réponses
Vous ne pouvez pas envoyer des pièces jointes
Vous ne pouvez pas modifier vos messages

Les balises BB sont activées : oui
Les smileys sont activés : oui
La balise [IMG] est activée : oui
Le code HTML peut être employé : non

Navigation rapide


Fuseau horaire GMT +2. Il est actuellement 16h42.


vBulletin® v.3.8.7, Copyright ©2000-2021, Jelsoft Enterprises Ltd.